منتدى البيجاوى
عزيزي الزائر / عزيزتي الزائرة
يرجي التكرم بتسجبل الدخول اذا كنت عضو معنا

او التسجيل ان لم تكن عضو وترغب في الانضمام الي اسرة المنتدي
سنتشرف بتسجيلك
شكرا
ادارة المنتدي

منتدى البيجاوى


 
الرئيسيةالرئيسية  البوابه 4البوابه 4  اليوميةاليومية  س .و .جس .و .ج  بحـثبحـث  الأعضاءالأعضاء  التسجيلالتسجيل  دخول  

 




شاطر | 
 

 فلم الرعب والاثاره للكبار فقطDaybreakers.2010.TeleSync.HQ.XviD

استعرض الموضوع السابق استعرض الموضوع التالي اذهب الى الأسفل 
كاتب الموضوعرسالة
محمدالبيجاوى
المدير العام
المدير العام
avatar

الجنس ذكر العقرب عدد المساهمات : 880
نقاط : 2289
السٌّمعَة : 22
تاريخ التسجيل : 29/12/2009
العمر : 32
العمل/الترفيه المدير العام
المزاج : الحمدلله تمام
كيف تعرفت علينا : لا تعليق

بطاقة الشخصية
لعبه رمى الظهر:

مُساهمةموضوع: فلم الرعب والاثاره للكبار فقطDaybreakers.2010.TeleSync.HQ.XviD   الأربعاء مارس 03, 2010 2:40 pm


Daybreakers.2010.TeleSync.HQ.XviD



كود:
Format : AVI
Format/Info : Audio Video Interleave
Format profile : OpenDML
File size : 1.22 GiB
Duration : 1h 31mn
Overall bit rate : 1 906 Kbps
Writing application : AVI-Mux GUI 1.17.7, Aug 8 2006 20:59:17

Video
Format : MPEG-4 Visual
Format settings, BVOP : Yes
Format settings, QPel : No
Format settings, GMC : No warppoints
Format settings, Matrix : Default (H.263)
Muxing mode : Packed bitstream
Codec ID : DX50
Codec ID/Hint : DivX 5
Duration : 1h 31mn
Bit rate : 1 642 Kbps
Width : 652 pixels
Height : 332 pixels
Display aspect ratio : 1.964
Frame rate : 25.000 fps
Resolution : 24 bits
Colorimetry : 4:2:0
Scan type : Progressive
Bits/(Pixel*Frame) : 0.303
Stream size : 1.05 GiB (86%)
Writing library : DivX 6.2.5 (UTC 2006-06-16)

Audio
Format : MPEG Audio
Format version : Version 1
Format profile : Layer 3
Codec ID : 55
Codec ID/Hint : MP3
Duration : 1h 31mn
Bit rate mode : Constant
Bit rate : 256 Kbps
Channel(s) : 2 channels
Sampling rate : 48.0 KHz
Resolution : 16 bits
Stream size : 167 MiB (13%)
Alignment : Aligned on interleaves
Interleave, duration : 24 ms (0.60 video frame)
Interleave, preload duration : 192 ms
Writing library : LAME3.98 (alpha)



كود:
[ندعوك للتسجيل في المنتدى أو التعريف بنفسك لمعاينة هذا الرابط]
[ندعوك للتسجيل في المنتدى أو التعريف بنفسك لمعاينة هذا الرابط]
[ندعوك للتسجيل في المنتدى أو التعريف بنفسك لمعاينة هذا الرابط]
[ندعوك للتسجيل في المنتدى أو التعريف بنفسك لمعاينة هذا الرابط]
[ندعوك للتسجيل في المنتدى أو التعريف بنفسك لمعاينة هذا الرابط]
[ندعوك للتسجيل في المنتدى أو التعريف بنفسك لمعاينة هذا الرابط]
[ندعوك للتسجيل في المنتدى أو التعريف بنفسك لمعاينة هذا الرابط]


الرجوع الى أعلى الصفحة اذهب الى الأسفل
http://mohamedsayed1.yoo7.com
 
فلم الرعب والاثاره للكبار فقطDaybreakers.2010.TeleSync.HQ.XviD
استعرض الموضوع السابق استعرض الموضوع التالي الرجوع الى أعلى الصفحة 
صفحة 1 من اصل 1

صلاحيات هذا المنتدى:لاتستطيع الرد على المواضيع في هذا المنتدى
منتدى البيجاوى :: قسم الافلام الاجنبى والاكشن-
انتقل الى:  
ساعة
المواضيع الأكثر شعبية
زفة الحجاج بصوت الحاجه نعمة القناويه بصيغة Mp3 حصريا على الدى فى دى
نتائج الامتحانات الوزارية لمرحلة المتوسطة 2011 لمدارس العراق
جميع قنوات النايل سات بث مباشر وداعا للرسيفر والطبق
مصارعه حريمى جامده للكبار فقط
الفلم اللبناني عاشقه تحت العشرين للكبار دي في دي ريب 343 ميكا وعلى اكثر من سيرفر
شرح عمل سوفت وير لرسيفر هيروشيما888+ملف السوفت+اللودر+ملف قنوات عربى
اغانى الحج فرحان البلبيسى ومديح نبوى زفة الحجاج
احدث افلام الاكشن الاجنبى مشاهده مباشر بدون تعب التحميل
اهم القنوات بث مباشر الحياه+مودرن+قناه المصارعه
جميع اغانى المطرب محمد طه
المواضيع الأكثر نشاطاً
نتائج الامتحانات الوزارية لمرحلة المتوسطة 2011 لمدارس العراق
الفلم اللبناني عاشقه تحت العشرين للكبار دي في دي ريب 343 ميكا وعلى اكثر من سيرفر
فيلم المغتصبون للكبار فقط الممنوع من العرض تحميل مباشر
سوفت رسيفر رسيفر هيروشيما888v1+اللودر+ملف قنوات عربى نايل +ملف قنوات نايل واروبى +الشرح بالصور موجود داخل رابط التحميل
شاهد قنوات art وقنوات ShowTime والجزيرة الرياضية مجانا {برنامج الاصلي وبس}
كيفية عمل نسخة الويندوز xp حسب رغبتك ووضع سمتك الشخصية عليها +البرامج
حل مشكله قفل Task Manager ...لا يعمل ؟؟؟ التاسك مانجر
كود لاخفاء حقوق احلي منتدي اسفل المنتدي
زفة الحجاج بصوت الحاجه نعمة القناويه بصيغة Mp3 حصريا على الدى فى دى
جميع اكواد تطوير المنتديات اكتر من 30 كود لتطوير المنتدى
أفضل 10 فاتحي مواضيع
محمدالبيجاوى
 
ابن الناظر
 
ashraf yahya
 
احمدباشا
 
احمد عاطف
 
الهامي الزهوي
 
elfaron
 
mido
 
كوكو البيجاوى
 
الديزل
 
تسجيل صفحاتك المفضلة في مواقع خارجية
تسجيل صفحاتك المفضلة في مواقع خارجية Digg  تسجيل صفحاتك المفضلة في مواقع خارجية Delicious  تسجيل صفحاتك المفضلة في مواقع خارجية Reddit  تسجيل صفحاتك المفضلة في مواقع خارجية Stumbleupon  تسجيل صفحاتك المفضلة في مواقع خارجية Slashdot  تسجيل صفحاتك المفضلة في مواقع خارجية Yahoo  تسجيل صفحاتك المفضلة في مواقع خارجية Google  تسجيل صفحاتك المفضلة في مواقع خارجية Blinklist  تسجيل صفحاتك المفضلة في مواقع خارجية Blogmarks  تسجيل صفحاتك المفضلة في مواقع خارجية Technorati  

قم بحفض و مشاطرة الرابط منتدى التنين الملتهب محمدالبيجاوى على موقع حفض الصفحات

قم بحفض و مشاطرة الرابط منتدى البيجاوى على موقع حفض الصفحات
أفضل 10 أعضاء في هذا الشهر
أفضل 10 أعضاء في هذا الأسبوع
سحابة الكلمات الدلالية